extratorrent2.cc - A Fan Made Alternative Login   |   Register
Important Information
Registrations are open now
-------------------------------------

Please click here to register with Extratorrent2 to recieve latest updates, add bookmarks and to post comments.

-------------------------------------

Your login details will work on both Extratorrent2.cc and Extra2.to

Friends
Friends

1) Filebebo
-------------------------------------
2) MoviesDig
-------------------------------------
3) Torrentz2.cc
-------------------------------------
4) Torrents.me

Extratorrent2 > Categories > Movies > The.Spiderwick.Chronicles.2008.Open.Matte.720p.WEBRiP.DTS.x264-LEGi0N torrent


Browse Movies torrents

The.Spiderwick.Chronicles.2008.Open.Matte.720p.WEBRiP.DTS.x264-LEGi0N torrent


The Spiderwick Chronicles (2008)
Name: The Spiderwick Chronicles
Released Year: 2008
Runtime: 96 mins
Gener: Adventure, Family, Fantas
Director: Mark Waters
Country: USA
IMDB Rating: 6.6/10
Plot: Upon moving into the run-down Spiderwick Estate with their mother, twin brothers Jared and Simon Grace, along with their sister Mallory, find themselves pulled into an alternate world full of faeries and other creatures.

Download torrent: Download The.Spiderwick.Chronicles.2008.Open.Matte.720p.WEBRiP.DTS.x264-LEGi0N torrent Magnet link Bookmark Torrent: The.Spiderwick.Chronicles.2008.Open.Matte.720p.WEBRiP.DTS.x264-LEGi0N   The.Spiderwick.Chronicles.2008.Open.Matte.720p.WEBRiP.DTS.x264-LEGi0N torrent
Info hash: E723272939D5B14EF1C874B323018624BC6EB0BA
Category: Categories > Movies
Trackers:
View all torrent trackers >
Health:
 seeds: 1 ,  leechers: 6 |  Update >
Torrent language: English English
Total Size: 4.8 GB
Files List:
3    View torrent files >
Uploader:
showstopper
Torrent added: September 13, 2017, 2:01 am
IMDB: http://www.imdb.com/title/tt0416236
Users rating: ---, not rated. please login to rate.

Download The.Spiderwick.Chronicles.2008.Open.Matte.720p.WEBRiP.DTS.x264-LEGi0N torrent



Torrent Description

The.Spiderwick.Chronicles.2008.Open.Matte.720p.WEBRiP.DTS.x264-LEGi0N

ImDb: http://www.imdb.com/title/tt0416236



Complete name : The.Spiderwick.Chronicles.2008.Open.Matte.720p.WEBRiP.DTS.x264-LEGi0N.mkv
Format : Matroska
Format version : Version 4 / Version 2
File size : 4.69 GiB
Duration : 1 h 35 min
Overall bit rate : 7 008 kb/s
Movie name : The.Spiderwick.Chronicles.2008.Open.Matte.720p.WEBRiP.DTS.x264-LEGi0N
Encoded date : UTC 2017-09-07 03:27:51
Writing application : mkvmerge v10.0.0 ('To Drown In You') 64bit
Writing library : libebml v1.3.4 + libmatroska v1.4.5

Video
ID : 1
Format : AVC
Format/Info : Advanced Video Codec
Format profile :
Format settings, CABAC : Yes
Format settings, ReFrames : 9 frames
Codec ID : V_MPEG4/ISO/AVC
Duration : 1 h 35 min
Bit rate : 5 499 kb/s
Width : 1 280 pixels
Height : 720 pixels
Display aspect ratio : 16:9
Frame rate mode : Constant
Frame rate : 23.976 (24000/1001) FPS
Color space : YUV
Chroma subsampling : 4:2:0
Bit depth : 8 bits
Scan type : Progressive
Bits/(Pixel*Frame) : 0.249
Stream size : 3.68 GiB (78%)
Title : The.Spiderwick.Chronicles.2008.Open.Matte.720p.WEBRiP.DTS.x264-LEGi0N
Writing library : x264 core 142 r2431+42 c69a006 tMod [ X86]
Encoding settings : cabac=1 / ref=9 / deblock=1:-3:-2 / analyse=0x3:0x113 / me=hex / subme=7 / psy=1 / fade_compensate=0.00 / psy_rd=1.00:0.00 / mixed_ref=1 / me_range=16 / chroma_me=1 / trellis=2 / 8x8dct=1 / cqm=0 / deadzone=21,11 / fast_pskip=0 / chroma_qp_offset=-2 / threads=48 / lookahead_threads=5 / sliced_threads=0 / nr=0 / decimate=1 / interlaced=0 / bluray_compat=0 / constrained_intra=0 / fgo=0 / bframes=7 / b_pyramid=2 / b_adapt=2 / b_bias=0 / direct=1 / weightb=1 / open_gop=0 / weightp=2 / keyint=240 / keyint_min=23 / scenecut=40 / intra_refresh=0 / rc_lookahead=40 / rc=2pass / mbtree=1 / bitrate=5499 / ratetol=1.0 / qcomp=0.60 / qpmin=0:0:0 / qpmax=69:69:69 / qpstep=4 / cplxblur=20.0 / qblur=0.5 / vbv_maxrate=49000 / vbv_bufsize=49000 / nal_hrd=none / filler=0 / ip_ratio=1.40 / aq=4:0.85 / aq-sensitivity=10.00 / aq-factor=1.00:1.00:1.00 / aq2=0 / aq3=0
Language : English
Default : Yes
Forced : No
Color range : Limited
Color primaries : BT.709
Transfer characteristics : BT.709
Matrix coefficients : BT.709

Audio
ID : 2
Format : DTS
Format/Info : Digital Theater Systems
Mode : 16
Format settings, Endianness : Big
Codec ID : A_DTS
Duration : 1 h 35 min
Bit rate mode : Constant
Bit rate : 1 509 kb/s
Channel(s) : 6 channels
Channel positions : Front: L C R, Side: L R, LFE
Sampling rate : 48.0 kHz
Frame rate : 93.750 FPS (512 spf)
Bit depth : 24 bits
Compression mode : Lossy
Delay relative to video : 4 ms
Stream size : 1.01 GiB (22%)
Title : The.Spiderwick.Chronicles.2008.Open.Matte.720p.WEBRiP.DTS.x264-LEGi0N
Language : English
Default : Yes
Forced : No

Text
ID : 3
Format : UTF-8
Codec ID : S_TEXT/UTF8
Codec ID/Info : UTF-8 Plain Text
Duration : 1 h 25 min
Bit rate : 62 b/s
Count of elements : 1496
Stream size : 39.1 KiB (0%)
Title : The.Spiderwick.Chronicles.2008.Open.Matte.720p.WEBRiP.DTS.x264-LEGi0N
Language : English
Default : Yes
Forced : No

Menu
00:00:00.000 : :Studio Logos
00:00:35.000 : :Arthur Spiderwick Compiles Notes, Opening Credits; Arthur's Lab
00:02:37.000 : :Jared Gets Upset about the Move; Spiderwick Manor
00:05:58.000 : :Jared and Simon Review Their New Home's Strange History; Bedroom
00:07:30.000 : :Jared Talks to His Dad; Kitchen
00:10:31.000 : :The Kids Find Their Stuff Inside a Wall; Kitchen
00:12:46.000 : :Jared Finds a Mysterious Book; Arthur's Lab
00:15:12.000 : :Jared Reads Arthur's Writings; Bedroom
00:19:17.000 : :Something Strange Happened to Mallory; Bedroom
00:19:58.000 : :The Difference between a Brownie and a Bugger; Front Yard
00:21:33.000 : :Jared Sets a Brownie Trap; Arthur's Lab
00:23:05.000 : :Thimbletack Tells Jared the Significance of the Book; Arthur's Lab
00:27:26.000 : :Jared Meets Hogsqueal; Woods
00:30:11.000 : :Jared Watches as His Brother Deals with Mulgarath; Woods
00:34:15.000 : :Jared and Simon Help Their Sister Repel the Goblins; Front Yard
00:36:48.000 : :The Kids Discuss What to Do with the Book; Hallway
00:39:19.000 : :The Kids Decide to Seek Help from Lucinda; Living Room
00:41:28.000 : :Mallory and Jared Dash to the Shed; Front Yard
00:43:09.000 : :Jared Repels a Troll; Multiple Locations
00:45:27.000 : :Helen Notices Her Kids; Helen's Office
00:46:32.000 : :Mallory and Jared Meet Lucinda; Sanitarium
00:49:44.000 : :Lucinda Talks about Her Father's Kidnapping; Multiple Locations
00:53:34.000 : :Mulgarath Discovers a Weakness in the Circle; Woods
00:54:20.000 : :Jared's Mother Has a Secret; Helen's Car
00:56:17.000 : :Mallory and Simon Meet Hogsqueal; Front Yard
00:58:22.000 : :Jared Learns why His Father Isn't Calling Back; Kitchen
01:01:10.000 : :Jared Summons a Gryphon; Front Yard
01:02:30.000 : :The Kids Take a Terrifying Ride; Skies
01:03:21.000 : :Jared Tells Arthur 80 Years Have Gone By; Sylvan Field
01:05:39.000 : :Arthur Helps the Kids Escape; Sylvan Field
01:09:41.000 : :Jared Lets His Mother In on the Secret; Hallway
01:11:35.000 : :The Kids Prepare the House for a Seige; Spiderwick Manor
01:13:12.000 : :The Goblins Attack; Living Room
01:15:48.000 : :An Unexpected Guest Arrives; Spiderwick Manor
01:17:51.000 : :Mulgarath Pursues Jared; Spiderwick Manor
01:21:59.000 : :Lucinda Returns Home; Spiderwick Manor
01:23:32.000 : :Lucinda Reunites with Her Father; Spiderwick Manor
01:27:03.000 : :End Credits






Click To View Screenshot

Click To View Screenshot

Click To View Screenshot


Download The.Spiderwick.Chronicles.2008.Open.Matte.720p.WEBRiP.DTS.x264-LEGi0N torrent


Related Torrents


Comments   (please login to add your comment!)

jav     thedicksuckers     daddy     supernatural season s07     newton     kemaco     13 reasons why     their finest 1080p     anya olsen the bang ring     bathroom     katrina jade     lea lexis     half girlfriend     stella cox     unforgettable     sherlock holmes     jessi     sydney cole     biplab     alexa grace     apartment     familystrokes aspen     patang hindi     bhoomi     


Home - Browse Torrents - Our official mirror : extra2.to

Made with love by an Extratorrent Fan!